Kevin David - Amazon FBA Ninja Full Course (2017)

Kevin David - Amazon FBA Ninja Full Course (2017)
Kevin David - Amazon FBA Ninja Full Course (2017)
WEBRip | English | MP4 + PDF Guides | 1280 x 720 | AVC ~847 Kbps | 29.970 fps
AAC | 256 Kbps | 48.0 KHz | 2 channels | 09:51:36 | 4.23 GB
Genre: Video Tutorial / Business, Sales, Marketing


The Last Amazon FBA Course You Will Ever Need. After Seeing Too Many Fake Gurus' Taking Advantage of People and Leading Them to Invest Their Life Savings into Terrible Products, I Knew I had to Do Something... I Decided to Create the Only Course that Walks you Through Exactly How to be Hugely Successful on Amazon with Step by Step Tutorials for Every Step of the Way... This Course Includes 8 In-Depth Modules + 3 Bonus Modules Covering THE ESSENTIALS of Selling on Amazon in Meticulous Detail from A - Z!
HERE IS WHAT I am going to show you...

How to Find and Purchase Products That Will Generate Tens of Thousands in Monthly Revenue on Amazon FBA WITH NO RISK!

The Never Before Released PPC Methods That Will Lower Your Costs and Increase Your Sales by Thousands!

HINT - Low Bid Exact Match CST

How to Rank All of Your Products to Organic Page 1 Using 3 Simple Tricks That are ENTIRELY ToS Compliant!

(No One Else Will Share This)

WARNING! THIS IS A TEST - I Have NEVER shared this content online before! I don't want to cut into my own Amazon Profits by

Sharing All of These Secrets,

I WILL REMOVE THIS AT THE END OF THE MONTH TO PRESERVE THESE SECRETS FOR MYSELF AND EARLY PURCHASERS!
What This Exact Training Did for My Business
After watching countless videos and hearing different opinions on the same topics from dozens of different Amazon "Gurus" without getting the results I knew I deserved, I decided to take matters into my own hands...

All other training's were high level, and guesswork, it became quickly obvious to me that the only thing that mattered in this business was Real Data, Quick-Win tips and tricks that only the top sellers in the world knew...
I quickly built a mastermind of 7-Figure sellers which exploded my business faster than even I expected, and through this process I created, shared, and learned from the best and brightest Amazon sellers data driven methods and strategies to dominate Amazon FBA...
After applying these product research techniques, I was capable of finding 10 new Home-Run Private Label Products in ONE WEEK with NO RISK!

Price: $1,249.95
More Info: Salepage


General
Complete name : 8. HOW I RESEARCH PRODUCTS TO SELL IN INTERNATIONAL MARKETS IN 2017.mp4
Format : MPEG-4
Format profile : Base Media / Version 2
Codec ID : mp42 (mp42/mp41/isom/avc1)
File size : 69.0 MiB
Duration : 8 min 40 s
Overall bit rate : 1 112 kb/s
Season : 0
Part : 0

Video
ID : 1
Format : AVC
Format/Info : Advanced Video Codec
Format profile : [email protected]
Format settings, CABAC : Yes
Format settings, ReFrames : 5 frames
Codec ID : avc1
Codec ID/Info : Advanced Video Coding
Duration : 8 min 40 s
Bit rate : 847 kb/s
Width : 1 280 pixels
Height : 720 pixels
Display aspect ratio : 16:9
Frame rate mode : Constant
Frame rate : 29.970 (30000/1001) FPS
Color space : YUV
Chroma subsampling : 4:2:0
Bit depth : 8 bits
Scan type : Progressive
Bits/(Pixel*Frame) : 0.031
Stream size : 52.6 MiB (76%)
Writing library : x264 core 148 r10 90a61ec
Encoded date : UTC 2017-05-15 03:49:55
Tagged date : UTC 2017-05-15 03:49:55
Color range : Limited
Color primaries : BT.709
Transfer characteristics : BT.709
Matrix coefficients : BT.709
Menus : 3

Audio
ID : 2
Format : AAC
Format/Info : Advanced Audio Codec
Format profile : LC
Codec ID : 40
Duration : 8 min 40 s
Bit rate mode : Constant
Bit rate : 256 kb/s
Channel(s) : 2 channels
Channel positions : Front: L R
Sampling rate : 48.0 kHz
Frame rate : 46.875 FPS (1024 spf)
Compression mode : Lossy
Stream size : 15.9 MiB (23%)
Encoded date : UTC 2017-05-15 03:49:55
Tagged date : UTC 2017-05-15 03:49:55

Menu
ID : 3
Codec ID : text
Duration : 8 min 40 s
Encoded date : UTC 2017-07-04 07:12:06
Tagged date : UTC 2017-07-04 07:12:06
Menu For : 1
00:00:00.000 : Chapter 1


Kevin David - Amazon FBA Ninja Full Course (2017)

Download link:



Links are Interchangeable - No Password - Single Extraction
[related-news][/related-news]
Dear visitor, you are browsing our website as Guest.
We strongly recommend you to register and login to view hidden contents.

Comments:

Add Comment
 

Copyright 2016 movelshoes.com
Powered by DataLife Engine .
All Rights Reserved.